Carpo

Le Forum des carpocapsiens
Nous sommes actuellement le 14 Novembre 2019, 16:03

Le fuseau horaire est UTC+1 heure [Heure d’été]




Forum verrouillé Ce sujet est verrouillé, vous ne pouvez rien publier ou éditer.  [ 4 messages ] 
Auteur Message
Message Publié : 27 Mars 2006, 17:42 
Hors-ligne
Avatar de l’utilisateur

Inscription : 27 Mars 2006, 17:29
Message(s) : 3
Bonjours,
je rencontre actuellement un problème avec un H264 récalcitrants, je vous expose tout dans les moindres détails :

J'ai une vidéo .mkv contenant 3 piste : audio ( ac3 ), video ( h264 ) et sous sitres ( ssa ).

Avant de passer par MKVtoolnix pour extraire tout ça, je me suis dit que je n'avais rien à perdre avec un petit test sous ffmpegX.

Celui ci reconnaît mes différentes pistes ( peut être pas les ssa, mais là n'est pas le plus gros problème ). Je commence alors un encodage en DivX MPEG4 tout bête. Pas de chance, ça s'arrête à 500 Ko ( too bad !).

Enfin, peu importe, je me lance avec l'utilitaire UNIX et lui fait ingurgiter cette commande
Code:
/usr/local/bin/mkvextract tracks /Users/alba/Movies/[Mendoi-Fansubs]nana.mkv 1:video.mp4 2:audio.ac3 3:subtitles.ssa


Ca marche du feu de dieu, le AC3 nikel, les sous titres nikel, le H264 PAS NIKEL du tout. Quicktime rechigne à me l'ouvrir ( erreur 2048 blablabla, comme d'hab ), MPlayer plante, et son petit copain copain VLC lui aussi. Et comble du malheur, le même FFMPEGX qui m'avait précisément reconnu ce fichier dix minutes auparavant est incapable de sortir quoique ce soit ( fichier illisible blablabla ).

Ce qui est comme vous pouvez le deviner, très embêtant, surtout que MPlayer et VLC me lisait très bien ce MKV ( enfin, c'est relatif, avec un G4 700, ça lague un peu ... beaucoup même :p ).

J'ai pensé à reconstruire l'index, mais ni D-Vision, ni FFM n'acceptent le mp4.

Donc si vous avez la moindre petite idée ou début d'idée, ça ne serait pas de refus :-)

Merci de m'avoir lu jusqu'au bout ;)

Edition
Voilà le journal de ffmpeg :
Code:
Last login: Mon Mar 27 17:49:45 on ttyp1
Welcome to Darwin!
You have new mail.
/Users/alba/Applications/ffmpegX.app//Contents/Resources/pbpaste | sh
Tiger-Inside:~ alba$ /Users/alba/Applications/ffmpegX.app//Contents/Resources/pbpaste | sh
Encoding started on Mon Mar 27 17:49:55 CEST 2006
ffmpeg version 0.4.9-pre1, build 4736, Copyright (c) 2000-2004 Fabrice Bellard
  configuration:  --enable-mp3lame --enable-gpl --disable-vhook --enable-ffplay --disable-ffserver --enable-a52 --enable-xvid --enable-faac --enable-faad --enable-amr_nb --enable-amr_wb --enable-pthreads
  built on Jan  7 2005 02:34:06, gcc: 3.3 20030304 (Apple Computer, Inc. build 1666)
[matroska @ 0x399490]parsing seekhead...
[matroska @ 0x399490]Ignoring seekhead entry for ID=0x1549a966
[matroska @ 0x399490]Ignoring seekhead entry for ID=0x1654ae6b
[matroska @ 0x399490]Ignoring seekhead entry for ID=0x114d9b74
[matroska @ 0x399490]parsing index...
[matroska @ 0x399490]Parsing info...
[matroska @ 0x399490]Unknown entry 0x7ba9 in info header
[matroska @ 0x399490]Unknown entry 0x73a4 in info header
[matroska @ 0x399490]parsing tracks...
[matroska @ 0x399490]parsing track, adding stream..,
[matroska @ 0x399490]Unknown track header entry 0x55aa - ignoring
[matroska @ 0x399490]Unknown track header entry 0x23314f - ignoring
[matroska @ 0x399490]Unknown track header entry 0x55ee - ignoring
[matroska @ 0x399490]Unknown track header entry 0xaa - ignoring
[matroska @ 0x399490]parsing track, adding stream..,
[matroska @ 0x399490]Unknown track header entry 0x55aa - ignoring
[matroska @ 0x399490]Unknown track header entry 0x23314f - ignoring
[matroska @ 0x399490]Unknown track header entry 0x55ee - ignoring
[matroska @ 0x399490]Unknown track header entry 0xaa - ignoring
[matroska @ 0x399490]parsing track, adding stream..,
[matroska @ 0x399490]Unknown track header entry 0x55aa - ignoring
[matroska @ 0x399490]Unknown track header entry 0x23314f - ignoring
[matroska @ 0x399490]Unknown track header entry 0x55ee - ignoring
[matroska @ 0x399490]Unknown track header entry 0xaa - ignoring
[matroska @ 0x399490]Unknown/unsupported CodecID V_MPEG4/ISO/AVC.
Input #0, matroska, from '/Volumes/Tiger/[Mendoi-Fansubs]nana.mkv':
  Duration: N/A, bitrate: N/A
  Stream #0.0: Video: , 720x480, 25.00 fps
  Stream #0.1: Audio: ac3, 48000 Hz, 5:1
Output #0, mp4, to '/Volumes/Tiger/[Mendoi-Fansubs]nana.mkv.ff.mp4':
  Stream #0.0: Video: mpeg4, 640x352, 24.00 fps, q=2-9, 200 kb/s
  Stream #0.1: Audio: aac, 48000 Hz, stereo, 96 kb/s
Stream mapping:
  Stream #0.0 -> #0.0
  Stream #0.1 -> #0.1
[mpeg4 @ 0x381324]removing common factors from framerate
Unsupported codec (id=0) for input stream #0.0

"Unsupported codec" <_<


Dernière édition par Alba Giotto le 19 Août 2009, 16:39, édité 1 fois au total.

Haut
 Profil  
Répondre en citant  
 Sujet du message :
Message Publié : 28 Mars 2006, 12:51 
Essaye plutot dans ffmpegX de prendre une conversion à base de mencoder plutot que de ffmpeg pour ce type de piste.
ça devrait (j'espère) mieux marcher...


Haut
  
Répondre en citant  
 Sujet du message :
Message Publié : 28 Mars 2006, 13:23 
Hors-ligne
Avatar de l’utilisateur

Inscription : 27 Mars 2006, 17:29
Message(s) : 3
Merci, mais ça ne marche pas mieux. :-!
Mais moi ce qui me turlupine, c'est le fait que mon mp4 une fois sortit de son conteneur n'est reconnu par aucun lecteur, c'est étrange et très embêtant.

Edition
J'ai trouvé un bout de solution ici :
http://forum.hardware.fr/hardwarefr/Vid ... 0020-1.htm
:-D


Haut
 Profil  
Répondre en citant  
 Sujet du message :
Message Publié : 01 Juillet 2007, 17:35 
Hors-ligne
Avatar de l’utilisateur

Inscription : 02 Avril 2005, 10:48
Message(s) : 19
Tu peux aussi utiliser VisualHub ou QuickTime avec le plugin Perian qui permet la prise en charge des fichiers .mkv par QT depuis hier. Pour plus de détail, va voir mon site dédié au MKV.


Haut
 Profil  
Répondre en citant  
Afficher les messages publiés depuis :  Trier par  
Forum verrouillé Ce sujet est verrouillé, vous ne pouvez rien publier ou éditer.  [ 4 messages ] 

Le fuseau horaire est UTC+1 heure [Heure d’été]


Qui est en ligne ?

Utilisateur(s) parcourant ce forum : Aucun utilisateur inscrit et 1 invité


Vous ne pouvez pas publier de nouveaux sujets dans ce forum
Vous ne pouvez pas répondre aux sujets dans ce forum
Vous ne pouvez pas éditer vos messages dans ce forum
Vous ne pouvez pas supprimer vos messages dans ce forum
Vous ne pouvez pas insérer de pièces jointes dans ce forum

Recherche de :
Aller vers :  
cron
Propulsé par phpBB® Forum Software © phpBB Group
Traduit en français par Maël Soucaze.