Carpo

Le Forum des carpocapsiens
Nous sommes actuellement le 20 Août 2018, 20:12

Le fuseau horaire est UTC+1 heure [Heure d’été]




Forum verrouillé Ce sujet est verrouillé, vous ne pouvez rien publier ou éditer.  [ 2 messages ] 
Auteur Message
 Sujet du message : Pb convertion FLV vers IPOD
Message Publié : 14 Juin 2010, 21:52 
Hors-ligne

Inscription : 14 Juin 2010, 21:45
Message(s) : 1
Bonjour, je viens d'installer ffmpeg x 0.09y mais j'ai un pb la convertion des fichiers FLV vers le format IPOD ne fonctionne pas
j'ai ce type de message
flv @ 0x5597b8]Unsupported video codec (7)

et en fin de log cela

Duration: 00:04:09.6, bitrate: N/A
Stream #0.0, 29.97 fps(r): Video: 0x0007
Stream #0.1: Audio: 0x000a, 44100 Hz, stereo
Incorrect frame rate
j'ai fait plusieurs tests avec des parametres differents mais sans succes
Si quelqu'un peu m'aider a trouvert une solution
Merci


Haut
 Profil  
Répondre en citant  
 Sujet du message : Re: Pb convertion FLV vers IPOD
Message Publié : 17 Juin 2010, 13:51 
faudrait que tu nous donne tes réglages aussi...
là vu le message d'erreur on dirait que tu lui demande de modifier et le format et le framerate.

NB : le support de flash dans ffmpegX était "expérimental" et en plus ffmepgX est VIEUX !


Haut
  
Répondre en citant  
Afficher les messages publiés depuis :  Trier par  
Forum verrouillé Ce sujet est verrouillé, vous ne pouvez rien publier ou éditer.  [ 2 messages ] 

Le fuseau horaire est UTC+1 heure [Heure d’été]


Qui est en ligne ?

Utilisateur(s) parcourant ce forum : Aucun utilisateur inscrit et 1 invité


Vous ne pouvez pas publier de nouveaux sujets dans ce forum
Vous ne pouvez pas répondre aux sujets dans ce forum
Vous ne pouvez pas éditer vos messages dans ce forum
Vous ne pouvez pas supprimer vos messages dans ce forum
Vous ne pouvez pas insérer de pièces jointes dans ce forum

Recherche de :
Aller vers :  
cron
Propulsé par phpBB® Forum Software © phpBB Group
Traduit en français par Maël Soucaze.